Mission.Impossible.Ghost.Protocol.2011.DVDSCR.H264-Silmarillion

  • Category Movies
  • Type h.264/x264
  • Language English
  • Total size 729.5 MB
  • Uploaded By Silmarillion
  • Downloads 344
  • Last checked 5 months ago
  • Date uploaded 6 years ago
  • Seeders 0
  • Leechers 0

Mission: Impossible - Ghost Protoco...

ActionAdventureThriller

In the 4th installment of the Mission Impossible series, Ethan Hunt (Cruise) and his team are racing against time to track down a dangerous terrorist named Hendricks (Nyqvist), who has gained access to Russian nuclear launch codes and is planning a strike on the United States. An attempt to stop him ends in an explosion causing severe destruction to the Kremlin and the IMF to be implicated in the bombing, forcing the President to disavow them. No longer being aided by the government, Ethan and his team chase Hendricks around the globe, although they might still be too late to stop a disaster.

Infohash : D82D41471617292C22DA5B50F93E6D4087B201E1




http://www.imdb.com/title/tt1229238/


Plot : The IMF is shut down when it's implicated in the bombing of the Kremlin, causing Ethan Hunt and his new team to go rogue to clear their organization's name.


Director: Brad Bird
Writers: Josh Appelbaum, André Nemec
Stars:Tom Cruise, Jeremy Renner and Simon Pegg


Format : MPEG-4
Format profile : Base Media
Codec ID : isom
File size : 729 MiB
Duration : 2h 12mn
Overall bit rate mode : Variable
Overall bit rate : 767 Kbps
Encoded date : UTC 2012-03-25 12:09:49
Tagged date : UTC 2012-03-25 12:09:49
Writing application : Lavf51.12.1

Video
ID : 1
Format : AVC
Format/Info : Advanced Video Codec
Format profile : [email protected]
Format settings, CABAC : No
Format settings, ReFrames : 1 frame
Format settings, GOP : M=1, N=12
Codec ID : avc1
Codec ID/Info : Advanced Video Coding
Duration : 2h 12mn
Bit rate : 704 Kbps
Width : 720 pixels
Height : 400 pixels
Display aspect ratio : 16:9
Frame rate mode : Constant
Frame rate : 23.976 fps
Color space : YUV
Chroma subsampling : 4:2:0
Bit depth : 8 bits
Scan type : Progressive
Bits/(Pixel*Frame) : 0.102
Stream size : 669 MiB (92%)
Encoded date : UTC 2012-03-25 12:09:49
Tagged date : UTC 2012-03-25 12:09:49

Audio
ID : 2
Format : AAC
Format/Info : Advanced Audio Codec
Format profile : LC
Codec ID : 40
Duration : 2h 12mn
Bit rate mode : Variable
Bit rate : 59.0 Kbps
Channel(s) : 2 channels
Channel positions : Front: L R
Sampling rate : 44.1 KHz
Compression mode : Lossy
Stream size : 56.1 MiB (8%)
Encoded date : UTC 2012-03-25 12:09:49
Tagged date : UTC 2012-03-25 12:09:49







Files:

  • Mission.Impossible.Ghost.Protocol.2011.DVDSCR.H264-Silmarillion.mp4 (729.4 MB)
  • bscap0001.jpg (30.1 KB)
  • bscap0000.jpg (29.4 KB)
  • bscap0002.jpg (23.4 KB)
  • bscap0003.jpg (15.8 KB)
  • nfo.txt (2.6 KB)
  • nfo.nfo (2.6 KB)

There are currently no comments. Feel free to leave one :)

Code:

  • http://tracker.istole.it/announce
  • http://tracker.publicbt.com:80/announce
  • http://tracker.novalayer.org:6969/announce
  • udp://10.rarbg.com/announce
  • http://tracker.torrent.to:2710/announce
  • udp://tracker.1337x.org:80/announce
  • http://pow7.com/announce
  • udp://tracker.1337x.org:80/announce
  • udp://tracker.publicbt.com:80/announce
  • udp://tracker.openbittorrent.com:80/announce
Sitemap我的世界1.8生活大冒险整合包 | Ch.6 : Yuuna-san and Daitsuiseki | なかったことにしてはいけない 七夕情人节特供,高清极品AsianStreetMeat.Ngiap.anal.720p | 马向阳下乡记播出时间 揭演员表剧情介绍 | To Love-Ru Darkness OVA Episode 1 English Subbed