Moviesjug.net Andhadhun 2018 Hindi (With Sample) PdvdRip 700MB

  • Category Movies
  • Type Bollywood
  • Language Hindi
  • Total size 706.7 MB
  • Uploaded By Moviesjug
  • Downloads 334
  • Last checked 59 minutes ago
  • Date uploaded 6 hours ago
  • Seeders 7
  • Leechers 25

Infohash : 9EEE2CE1E24CE07D1D9DE8F5CA7AFA06DE381DE6






Vist Our Site http://moviesjug.net/










SCREENSHOTS












MEDIA INFO




PdvdRip 700MB\Andhadhun 2018 Hindi www.Moviesjug.net PdvdRip x264 AAC.mkv
Format                                   : Matroska
Format version                           : Version 4 / Version 2
File size                                : 699 MiB
Duration                                 : 2 h 0 min
Overall bit rate                         : 808 kb/s
Movie name                               : Downloaded From www.Moviesjug.net

Video
ID                                       : 1
Format                                   : AVC
Format/Info                              : Advanced Video Codec
Format profile                           : [email protected]
Format settings                          : CABAC / 8 Ref Frames
Format settings, CABAC                   : Yes
Format settings, RefFrames               : 8 frames
Codec ID                                 : V_MPEG4/ISO/AVC
Duration                                 : 2 h 0 min
Bit rate                                 : 726 kb/s
Width                                    : 640 pixels
Height                                   : 268 pixels
Display aspect ratio                     : 2.40:1
Frame rate mode                          : Constant
Frame rate                               : 23.976 (24000/1001) FPS
Color space                              : YUV
Chroma subsampling                       : 4:2:0
Bit depth                                : 8 bits
Scan type                                : Progressive
Bits/(Pixel*Frame)                       : 0.177
Stream size                              : 628 MiB (90%)
Language                                 : Hindi
Default                                  : Yes
Forced                                   : No

Audio
ID                                       : 2
Format                                   : AAC
Format/Info                              : Advanced Audio Codec
Format profile                           : HE-AAC / LC
Format settings                          : Explicit
Codec ID                                 : A_AAC-2
Duration                                 : 2 h 0 min
Bit rate                                 : 80.0 kb/s
Channel(s)                               : 2 channels
Channel positions                        : Front: L R
Sampling rate                            : 44.1 kHz / 22.05 kHz
Frame rate                               : 21.533 FPS (1024 SPF)
Compression mode                         : Lossy
Delay relative to video                  : 33 ms
Stream size                              : 69.2 MiB (10%)
Title                                    : Downloaded From www.Moviesjug.net
Language                                 : Hindi
Default                                  : Yes
Forced                                   : No

Files:

Moviesjug.net Andhadhun 2018 Hindi (With Sample) PdvdRip 700MB
  • Sample.mp4 (8.1 MB)
  • Andhadhun 2018 Hindi www.Moviesjug.net PdvdRip x264 AAC.mkv (698.7 MB)

There are currently no comments. Feel free to leave one :)

Code:

  • udp://tracker.openbittorrent.com:80/announce
  • udp://tracker.opentrackr.org:1337/announce
  • UDP://TRACKER.LEECHERS-PARADISE.ORG:6969/ANNOUNCE
  • UDP://TRACKER.COPPERSURFER.TK:6969/ANNOUNCE
  • UDP://TRACKER.OPENTRACKR.ORG:1337/ANNOUNCE
  • UDP://TRACKER.ZER0DAY.TO:1337/ANNOUNCE
  • UDP://EDDIE4.NL:6969/ANNOUNCE
SitemapBruidsparaplu | Destino Final 3 | Hajimete no Gal Sub Indo Batch Eps 1-10 Lengkap stella71 | Voice Changer - Funny sound effects Pro APK | Development of Personal Computers - 2518 Words