18+ Better Off Zed 2018 Movies HDRip x264 5.1 with Sample ☻rDX☻...

  • Category Movies
  • Type HD
  • Language English
  • Total size 831.1 MB
  • Uploaded By nehalpuja
  • Downloads 3
  • Last checked 10 minutes ago
  • Date uploaded 10 minutes ago
  • Seeders 0
  • Leechers 0

Infohash : BD15B23B0D43315E72B97BAF3972378FE9BC003C

18+ Better Off Zed 2018 Movies HDRip x264 5.1 with Sample ☻rDX☻
===============================================================================================

SCREEN SHOTS:



or

http://iphonehosting.eu/2018/9/a/creditcard/1.html

File size : 822 MiB
Duration : 1 h 27 min
Overall bit rate mode : Constant
Overall bit rate : 1 312 kb/s
Movie name : 18+ Better Off Zed 2018 Movies HDRip x264 5.1 ☻rDX☻

Video
ID : 2
Format : AVC
Format/Info : Advanced Video Codec
Format profile : [email protected]
Format settings, CABAC : Yes
Format settings, ReFrames : 2 frames
Format settings, GOP : M=1, N=12
Codec ID : V_MPEG4/ISO/AVC
Duration : 1 h 27 min
Bit rate mode : Constant
Bit rate : 1 121 kb/s
Width : 720 pixels
Height : 304 pixels
Display aspect ratio : 2.35:1
Frame rate mode : Constant
Frame rate : 23.976 (23976/1000) FPS
Color space : YUV
Chroma subsampling : 4:2:0
Bit depth : 8 bits
Scan type : Progressive
Bits/(Pixel*Frame) : 0.214
Stream size : 685 MiB (83%)
Title : ☻rDX☻
Default : Yes
Forced : No

Audio
ID : 1
Format : AC-3
Format/Info : Audio Coding 3
Mode extension : CM (complete main)
Format settings, Endianness : Big
Codec ID : A_AC3
Duration : 1 h 27 min
Bit rate mode : Constant
Bit rate : 192 kb/s
Channel(s) : 6 channels
Channel positions : Front: L C R, Side: L R, LFE
Sampling rate : 48.0 kHz
Frame rate : 31.250 FPS (1536 spf)
Bit depth : 16 bits
Compression mode : Lossy
Stream size : 120 MiB (15%)
Title : ☻rDX☻
Default : Yes
Forced : No

http://www.imdb.com/title/tt7248518/

Files:

18+ Better Off Zed 2018 Movies HDRip x264 5.1 with Sample ☻rDX☻
  • Sample ~ 18+ Better Off Zed 2018 Movies HDRip x264 5.1 ☻rDX☻.mkv (9.3 MB)
  • 18+ Better Off Zed 2018 Movies HDRip x264 5.1 ☻rDX☻.mkv (821.8 MB)

There are currently no comments. Feel free to leave one :)

Code:

  • udp://tracker.coppersurfer.tk:6969/announce
  • udp://tracker.leechers-paradise.org:6969/announce
  • udp://tracker.pirateparty.gr:6969/announce
  • udp://eddie4.nl:6969/announce
  • udp://tracker.zer0day.to:1337/announce
  • udp://9.rarbg.me:2710/announce
  • udp://9.rarbg.to:2710/announce
  • udp://public.popcorn-tracker.org:6969/announce
  • udp://p4p.arenabg.ch:1337/announce
  • udp://tracker.vanitycore.co:6969/announce
  • udp://ipv4.tracker.harry.lu:80/announce
  • udp://tracker.opentrackr.org:1337/announce
  • udp://p4p.arenabg.com:1337/announce
  • udp://shadowshq.yi.org:6969/announce
SitemapProiettori | 14 Comment | 10-100x A4 Sammelhüllen Prospekthüllen Kartenhüllen 120my geteilt auf A5, A6 A8 Ver los siguientes 20 Colaboradores | Österreich Austria 2017 2018 Dispensermarken Heimat 1-4 + 5-8 + 9-12 Komplett ** | Sky Cinema Max